<?xml version="1.0" encoding="UTF-8" standalone="no"?>
<svg
   xmlns:dc="http://purl.org/dc/elements/1.1/"
   xmlns:cc="http://creativecommons.org/ns#"
   xmlns:rdf="http://www.w3.org/1999/02/22-rdf-syntax-ns#"
   xmlns:svg="http://www.w3.org/2000/svg"
   xmlns="http://www.w3.org/2000/svg"
   id="svg254"
   viewBox="0 0 5079.9998 5079.9999"
   style="clip-rule:evenodd;fill-rule:evenodd;image-rendering:optimizeQuality;shape-rendering:geometricPrecision;text-rendering:geometricPrecision"
   version="1.1"
   height="192"
   width="192"
   xml:space="preserve"><metadata
   id="metadata258"><rdf:RDF><cc:Work
       rdf:about=""><dc:format>image/svg+xml</dc:format><dc:type
         rdf:resource="http://purl.org/dc/dcmitype/StillImage" /><dc:title></dc:title></cc:Work></rdf:RDF></metadata>
 <defs
   id="defs96">
  <font
   vert-adv-y="1024"
   vert-origin-y="768"
   vert-origin-x="512"
   horiz-origin-y="0"
   horiz-origin-x="0"
   font-weight="400"
   font-style="normal"
   style="fill-rule:nonzero"
   font-variant="normal"
   horiz-adv-x="666"
   id="FontID1">
	<font-face
   id="font-face2"
   font-family="Arial">
		<font-face-src>
			<font-face-name
   name="Arial" />
		</font-face-src>
	</font-face>
   <missing-glyph
   id="missing-glyph6"><path
     id="path4"
     d="M0 0z" /></missing-glyph>
   <glyph
   id="glyph8"
   d="M90.9928 0l0 99.9929 100.017 0 0 -99.9929 -100.017 0z"
   horiz-adv-x="277"
   unicode="." />
   <glyph
   id="glyph10"
   d="M72.9927 0l0 715.99 95.0086 0 0 -631.989 351.995 0 0 -84.0007 -447.004 0z"
   horiz-adv-x="556"
   unicode="L" />
   <glyph
   id="glyph12"
   d="M405.003 65.0084c-32.6695,-27.8506 -64.1816,-47.339 -94.3472,-58.843 -30.1656,-11.504 -62.4808,-17.1734 -97.1582,-17.1734 -57.0004,0 -100.82,13.8426 -131.505,41.6696 -30.6617,27.6616 -45.9925,63.1659 -45.9925,106.347 0,25.323 5.83469,48.4964 17.3387,69.4966 11.6694,21.0002 26.8349,37.6538 45.4964,50.339 18.8269,12.6615 39.8271,22.323 63.3312,28.8191 17.3387,4.51185 43.4885,8.83472 78.3313,13.1812 71.0084,8.31503 123.497,18.4962 156.993,30.1656 0.330711,12.0001 0.519689,19.6537 0.519689,22.8191 0,35.6696 -8.33865,60.8273 -25.0159,75.4967 -22.4884,19.8427 -55.9847,29.6695 -100.324,29.6695 -41.5043,0 -72.1659,-7.32289 -91.8432,-21.8269 -19.8191,-14.5041 -34.3231,-40.1578 -43.8192,-77.1738l-86.0086 12.0001c7.84258,36.8271 20.6695,66.6619 38.6696,89.3393 18.0001,22.6773 44.0082,39.9924 78.0006,52.3232 33.827,12.1655 73.3234,18.3309 117.993,18.3309 44.3389,0 80.5046,-5.14965 108.332,-15.6615 27.6616,-10.4883 48.1657,-23.5041 61.1816,-39.331 12.9922,-15.8269 22.1577,-35.8349 27.4963,-60.0005 2.83467,-15.0001 4.32287,-42.0003 4.32287,-80.8353l0 -116.67c0,-81.4967 1.84253,-132.993 5.50398,-154.82 3.49609,-21.8269 10.8426,-42.6618 21.4962,-62.6698l-91.985 0c-8.83472,18.4962 -14.5041,40.1578 -17.008,65.0084zm-6.99218 195.002c-32.0081,-13.0159 -80.0085,-24.0002 -144.001,-33.0003 -36.3546,-5.17327 -62.0084,-11.008 -77.0085,-17.5041 -15.0001,-6.49611 -26.5041,-16.0159 -34.6774,-28.3467 -8.14967,-12.4962 -12.3308,-26.3152 -12.3308,-41.6696 0,-23.1498 8.83472,-42.6618 26.6695,-58.1579 17.8348,-15.4962 43.8429,-23.3388 78.0006,-23.3388 33.827,0 63.9926,7.34651 90.4968,22.1813 26.3388,14.6694 45.8508,34.8192 58.1816,60.3312 9.49614,19.8191 14.1497,48.9925 14.1497,87.4968l0.519689 32.0081z"
   horiz-adv-x="556"
   unicode="a" />
   <glyph
   id="glyph14"
   d="M147.001 0l-81.9928 0 0 715.99 87.9928 0 0 -255.498c37.1578,46.3468 84.4967,69.4966 142.159,69.4966 31.8428,0 62.1737,-6.33076 90.6621,-19.1576 28.512,-12.8269 51.8508,-30.9924 70.347,-54.1658 18.3309,-23.3388 32.8349,-51.3311 43.1578,-84.166 10.5119,-32.6695 15.6615,-67.8431 15.6615,-105.166 0,-88.6779 -21.9923,-157.324 -65.8115,-205.655 -44.0082,-48.5201 -96.6858,-72.6856 -158.174,-72.6856 -61.158,0 -109.158,25.512 -144.001,76.3471l0 -65.3391zm-0.992134 263.341c0,-62.0084 8.48038,-106.843 25.323,-134.505 27.6616,-45.1657 65.0084,-67.8431 112.158,-67.8431 38.5042,0 71.6699,16.6773 99.5205,50.0083 27.9923,33.331 42.0003,83.0085 42.0003,149.009 0,67.6541 -13.3466,117.497 -40.1814,149.647 -26.8349,32.1735 -59.339,48.3547 -97.3236,48.3547 -38.5042,0 -71.6699,-16.6773 -99.4968,-50.0083 -28.016,-33.331 -42.0003,-81.4967 -42.0003,-144.663z"
   horiz-adv-x="556"
   unicode="b" />
   <glyph
   id="glyph16"
   d="M401.011 0l0 65.8352c-32.8349,-51.1658 -81.166,-76.8431 -145.017,-76.8431 -41.3389,0 -79.3235,11.3387 -113.836,34.1814 -34.6538,22.6537 -61.4887,54.4965 -80.6699,95.1504 -18.9923,40.8428 -28.4884,87.6857 -28.4884,140.67 0,51.6618 8.66936,98.5047 25.8427,140.67 17.3151,42.0003 43.1578,74.3392 77.6463,96.6622 34.3467,22.512 73.0163,33.6617 115.513,33.6617 31.3231,0 59.1737,-6.66147 83.5046,-19.8191 24.3309,-13.1576 44.15,-30.4963 59.5044,-51.6618l0 257.482 87.9928 0 0 -715.99 -81.9928 0zm-278.01 258.829c0,-66.3312 14.008,-115.82 42.1657,-148.655 27.9923,-32.8349 61.158,-49.1815 99.3315,-49.1815 38.5042,0 71.1738,15.6852 98.174,47.0082 26.8349,31.3231 40.3232,79.1581 40.3232,143.505 0,70.6541 -13.6537,122.67 -41.1736,155.836 -27.3309,33.1656 -61.158,49.6539 -101.316,49.6539 -39.1657,0 -71.8352,-15.8269 -98.174,-47.6697 -26.1734,-31.8191 -39.331,-81.9928 -39.331,-150.497z"
   horiz-adv-x="556"
   unicode="d" />
   <glyph
   id="glyph18"
   d="M420.003 168.001l90.9928 -12.0001c-14.1733,-52.8429 -40.6539,-93.9929 -79.3235,-123.166 -38.6696,-29.1735 -88.0164,-43.8429 -148.182,-43.8429 -75.662,0 -135.662,23.3388 -180.001,70.0163 -44.3153,46.4886 -66.4966,111.993 -66.4966,196.159 0,87.0007 22.3466,154.655 67.1816,202.655 44.835,48.1657 102.993,72.1659 174.497,72.1659 69.1659,0 125.67,-23.4805 169.49,-70.6541 43.8429,-47.1736 65.8352,-113.505 65.8352,-198.994 0,-5.17327 -0.165356,-13.0159 -0.496067,-23.3388l-386.507 0c3.33073,-56.8351 19.3466,-100.513 48.3311,-130.678 28.8427,-30.1656 65.0084,-45.3311 108.166,-45.3311 32.1735,0 59.6698,8.504 82.3471,25.512 22.8191,16.9844 40.8192,44.1736 54.1658,81.4967zm-288.002 141.001l288.994 0c-3.8268,43.6539 -15.0001,76.3234 -33.1656,98.174 -27.827,33.827 -64.158,50.835 -108.662,50.835 -40.3232,0 -74.1738,-13.5119 -101.67,-40.5121 -27.3309,-27.0002 -42.4964,-63.1659 -45.4964,-108.497z"
   horiz-adv-x="556"
   unicode="e" />
   <glyph
   id="glyph20"
   d="M87.0007 0l0 450.996 -78.0006 0 0 68.0084 78.0006 0 0 54.9926c0,34.8428 3.00002,60.6619 9.16543,77.5045 8.504,22.6537 23.1734,41.1736 44.5043,55.3233 21.1655,14.1733 51.0004,21.1655 89.3393,21.1655 24.827,0 52.1579,-3.00002 82.1581,-8.83472l-13.1576 -76.9849c-18.3545,3.16538 -35.5042,4.81894 -51.8508,4.81894 -26.6695,0 -45.4964,-5.64571 -56.6697,-16.9844 -10.9843,-11.3387 -16.4883,-32.5042 -16.4883,-63.4966l0 -47.5043 101.009 0 0 -68.0084 -100.017 0 0 -450.996 -87.9928 0z"
   horiz-adv-x="277"
   unicode="f" />
   <glyph
   id="glyph22"
   d="M49.8429 -42.9925l84.9928 -12.0001c3.49609,-26.3388 13.4883,-45.4964 29.8349,-57.6855 21.8269,-16.1576 51.6618,-24.3309 89.5046,-24.3309 40.6539,0 72.1659,8.17329 94.3236,24.3309 22.1577,16.1812 37.1578,39.0003 45.0004,68.1738 4.51185,17.8348 6.66147,55.3469 6.33076,112.513 -38.5042,-45.3311 -86.3393,-68.0084 -143.67,-68.0084 -71.3155,0 -126.662,25.6774 -165.663,77.1738 -39.1657,51.3311 -58.654,112.985 -58.654,184.82 0,49.5122 9.00007,95.174 26.8349,137.009 17.8112,41.835 43.8192,74.0085 77.8116,96.8275 34.016,22.8427 74.0085,34.1577 120.001,34.1577 61.1816,0 111.686,-24.9923 151.348,-74.977l0 63.9926 81.0006 0 0 -448.161c0,-80.8353 -8.17329,-138.001 -24.6616,-171.686 -16.3466,-33.6617 -42.52,-60.3312 -78.0006,-79.8195 -35.6696,-19.512 -79.5124,-29.3388 -131.505,-29.3388 -61.843,0 -111.662,13.8426 -149.67,41.6696 -38.1735,27.6616 -56.5044,69.4966 -55.1579,125.34zm72.0006 311.317c0,-67.8194 13.4883,-117.332 40.4885,-148.489 27.1656,-31.1577 60.9926,-46.8429 101.67,-46.8429 40.4885,0 74.3392,15.4962 101.835,46.5122 27.3309,30.9924 40.9846,79.6542 40.9846,145.985 0,63.3548 -14.1497,111.166 -42.331,143.34 -28.1577,32.1735 -62.1501,48.1657 -101.835,48.1657 -39.1657,0 -72.3313,-15.8269 -99.8276,-47.5043 -27.3309,-31.6538 -40.9846,-78.662 -40.9846,-141.166z"
   horiz-adv-x="556"
   unicode="g" />
   <glyph
   id="glyph24"
   d="M66.0005 0l0 715.99 87.9928 0 0 -257.648c40.8428,47.835 92.3393,71.6462 154.678,71.6462 38.1499,0 71.3391,-7.48825 99.6622,-22.6537 28.1577,-15.1655 48.3311,-36.0003 60.4965,-62.6698 12.1655,-26.6695 18.1655,-65.5045 18.1655,-116.174l0 -328.491 -87.9928 0 0 328.16c0,43.8429 -9.49614,75.851 -28.3467,95.8354 -18.9923,20.008 -45.6618,30.0002 -80.3156,30.0002 -25.8427,0 -50.1736,-6.66147 -73.0163,-20.1734 -22.8191,-13.4883 -39.0003,-31.8191 -48.8272,-54.9926 -9.66149,-23.0081 -14.5041,-54.8272 -14.5041,-95.5047l0 -283.325 -87.9928 0z"
   horiz-adv-x="556"
   unicode="h" />
   <glyph
   id="glyph26"
   d="M66.0005 615.997l0 99.9929 87.9928 0 0 -99.9929 -87.9928 0zm0 -615.997l0 519.004 87.9928 0 0 -519.004 -87.9928 0z"
   horiz-adv-x="222"
   unicode="i" />
   <glyph
   id="glyph28"
   d="M66.0005 0l0 519.004 78.9927 0 0 -73.6777c38.0082,56.5044 93.0007,84.6621 164.836,84.6621 31.3467,0 60.0005,-5.64571 86.1739,-16.819 26.1734,-11.1733 45.8271,-26.0081 58.8194,-44.1736 13.0159,-18.1655 22.1813,-39.8271 27.3545,-64.8194 3.16538,-16.3466 4.81894,-44.835 4.81894,-85.5125l0 -318.664 -87.9928 0 0 315.333c0,35.8349 -3.33073,62.6698 -10.1812,80.3392 -6.82683,17.6694 -18.9923,31.8191 -36.331,42.4964 -17.3151,10.4883 -37.8192,15.8269 -61.158,15.8269 -37.3231,0 -69.4966,-11.8347 -96.6622,-35.6696 -27.1656,-23.6695 -40.6775,-68.8352 -40.6775,-135.166l0 -283.16 -87.9928 0z"
   horiz-adv-x="556"
   unicode="n" />
   <glyph
   id="glyph30"
   d="M33.0003 259.49c0,95.8354 26.6695,166.844 80.1739,213.002 44.5043,38.3389 99.0008,57.4965 163.159,57.4965 71.1738,0 129.497,-23.3151 174.828,-69.9927 45.1657,-46.4886 67.8431,-111.001 67.8431,-193.159 0,-66.6619 -10.0158,-119.009 -30.0002,-157.159 -20.008,-38.1735 -49.1815,-67.8431 -87.4968,-89.0086 -38.1735,-21.1655 -80.0085,-31.6774 -125.174,-31.6774 -72.662,0 -131.34,23.1734 -176.175,69.6856 -44.835,46.4886 -67.158,113.481 -67.158,200.813zm90.0007 -0.165356c0,-66.3312 14.5041,-115.985 43.4885,-148.82 29.1735,-33.0003 65.6698,-49.5122 109.843,-49.5122 43.6775,0 80.0085,16.5119 109.158,49.6776 29.0081,33.1656 43.5122,83.67 43.5122,151.489 0,64.0163 -14.6694,112.513 -43.8429,145.348 -29.1498,33.0003 -65.5045,49.4886 -108.828,49.4886 -44.1736,0 -80.6699,-16.323 -109.843,-49.1579 -28.9845,-32.8349 -43.4885,-82.3471 -43.4885,-148.513z"
   horiz-adv-x="556"
   unicode="o" />
   <glyph
   id="glyph32"
   d="M65.0084 0l0 519.004 78.9927 0 0 -79.5124c20.1734,36.8507 38.835,61.1816 56.0083,72.851 17.1497,11.8347 36.0003,17.6458 56.4808,17.6458 29.6695,0 59.8351,-9.33078 90.5204,-27.827l-31.3467 -81.166c-21.3309,12.0001 -42.6618,18.0001 -63.9926,18.0001 -19.1813,0 -36.331,-5.83469 -51.4965,-17.3387 -15.1655,-11.4804 -26.0081,-27.4963 -32.5042,-48.0004 -9.82685,-31.1577 -14.6694,-65.3155 -14.6694,-102.497l0 -271.16 -87.9928 0z"
   horiz-adv-x="333"
   unicode="r" />
   <glyph
   id="glyph34"
   d="M30.9924 155.009l87.0007 13.9844c4.84256,-34.8192 18.4962,-61.4887 40.8428,-80.1502 22.323,-18.5198 53.6697,-27.8506 93.6622,-27.8506 40.5121,0 70.5124,8.17329 90.1661,24.6852 19.512,16.323 29.3388,35.6459 29.3388,57.8272 0,19.8191 -8.83472,35.5042 -26.3388,46.8193 -12.3308,7.84258 -42.331,17.6694 -90.0007,29.8349 -64.3233,16.1812 -108.828,30.1656 -133.82,42.0003 -24.8506,12.0001 -43.6775,28.3467 -56.5044,49.3468 -12.8505,20.8348 -19.3466,43.9846 -19.3466,69.3313 0,23.1734 5.33862,44.5043 15.8505,64.158 10.6536,19.6773 24.9923,36.0003 43.1578,49.0161 13.6773,9.9922 32.3388,18.4962 55.843,25.4884 23.6459,6.99218 48.8272,10.4883 75.8274,10.4883 40.6539,0 76.3234,-5.81107 106.985,-17.6458 30.8506,-11.6694 53.5044,-27.6853 68.1738,-47.6697 14.5041,-20.1734 24.6616,-47.0082 30.1656,-80.6699l-85.9849 -12.0001c-3.85042,27.0002 -15.1891,48.1657 -33.8507,63.3312 -18.6616,15.1655 -45.0004,22.6773 -79.1581,22.6773 -40.1578,0 -69.0005,-6.68509 -86.1739,-20.008 -17.1497,-13.3466 -25.8191,-29.0081 -25.8191,-46.8429 0,-11.3387 3.49609,-21.6616 10.6536,-30.827 7.18116,-9.33078 18.3309,-17.1734 33.6617,-23.3388 8.83472,-3.33073 34.5121,-10.819 77.5045,-22.4884 62.0084,-16.5119 105.332,-30.1656 129.993,-40.6775 24.6852,-10.4883 44.0082,-25.9845 58.0162,-45.9925 14.1733,-20.1734 21.1655,-45.1657 21.1655,-75.1659 0,-29.1735 -8.504,-56.6697 -25.6774,-82.5125 -17.1497,-25.8191 -41.835,-45.8271 -73.9848,-60.0005 -32.3388,-14.1497 -68.8352,-21.1655 -109.513,-21.1655 -67.3234,0 -118.82,14.008 -154.159,41.835 -35.3389,28.016 -57.8272,69.3313 -67.6777,124.182z"
   horiz-adv-x="500"
   unicode="s" />
   <glyph
   id="glyph36"
   d="M159.332 0l-156.828 519.004 91.985 0 82.8432 -299.506 29.3388 -111.497c1.15749,5.50398 10.1576,41.1736 26.8349,107.009l82.1581 303.995 90.1661 0 78.166 -301.349 25.512 -98.8118 29.8349 100.158 89.6464 300.002 85.5125 0 -162.828 -519.004 -91.0165 0 -82.3235 310.491 -20.8348 88.8432 -105.001 -399.334 -93.1661 0z"
   horiz-adv-x="722"
   unicode="w" />
  </font>
  <font
   vert-adv-y="1024"
   vert-origin-y="768"
   vert-origin-x="512"
   horiz-origin-y="0"
   horiz-origin-x="0"
   font-weight="400"
   font-style="normal"
   style="fill-rule:nonzero"
   font-variant="normal"
   horiz-adv-x="659"
   id="FontID0">
	<font-face
   id="font-face39"
   font-family="Bodoni Bd BT">
		<font-face-src>
			<font-face-name
   name="Bodoni Bd BT Bold" />
		</font-face-src>
	</font-face>
   <missing-glyph
   id="missing-glyph43"><path
     id="path41"
     d="M0 0z" /></missing-glyph>
   <glyph
   id="glyph45"
   d="M31 32l79 0 0 588 -79 0 0 30 336 0c91.5039,0 159.504,-13.6693 204.165,-40.8346 44.5039,-27.1654 66.8346,-69 66.8346,-125.331 0,-58.8346 -23,-103.165 -69.1654,-132.669 -46,-29.4961 -115,-44.1654 -207.165,-44.1654l-87.6693 0 0 -275 92 0 0 -32 -335 0 0 32zm243 588l0 -287 91 0c36.8346,0 61.1654,7.83465 73.1654,23.5039 11.8346,15.4961 17.8346,57.3307 17.8346,125.331 0,61.4961 -6,100 -17.8346,115.165 -12,15.3307 -37.8346,23 -77.4961,23l-86.6693 0z"
   horiz-adv-x="657"
   unicode="P" />
   <glyph
   id="glyph47"
   d="M31 32l77 0 0 588 -77 0 0 30 363.165 0c74.8346,0 132.165,-12.1654 172,-36.6693 39.8346,-24.3307 59.8346,-59.6614 59.8346,-105.496 0,-46.6693 -18.6693,-83.5039 -56.1654,-111 -37.3307,-27.3307 -90.6693,-42.6693 -159.669,-45.8346l0 -8.33071c70.6693,-9.33858 120.669,-31.5039 149.835,-66.1654 29.3307,-34.6693 44,-90 44,-165.835 0,-31.1654 3.16535,-51.8346 9.33071,-61.8346 6.17323,-9.83465 17,-14.8346 32.6693,-14.8346 6.16535,0 12.8346,0.669291 20.1654,2.16535 7.33858,1.50394 15.1654,3.66929 23.6693,6.66929l10.1654 -26.8346c-21.4961,-9.66929 -42,-17.1654 -61.6693,-22.3307 -19.6614,-5.17323 -36.8268,-7.66929 -51.4961,-7.66929 -27,0 -51.5039,4 -73.5039,12.1654 -21.8268,8.16535 -39.3307,19.5039 -52.3307,34.1654 -25.4961,28.3386 -39.4961,81 -42,158.173 -0.330709,10.4961 -0.669291,18.1654 -1,23.4961 -2,44.8346 -12.4961,76 -31.6693,93.6693 -19.3307,17.4961 -51.6614,26.3307 -97.1654,26.3307l-17.1654 0 0 -302 85 0 0 -32 -326 0 0 32zm241 334l82 0c37,0 62.1654,7.66929 75.3307,23.1654 13.1732,15.5039 19.6693,48.3386 19.6693,98.5039 0,63.1654 -5.49606,101 -16.3307,113.496 -10.8346,12.5039 -37,18.8346 -78.6693,18.8346l-82 0 0 -254z"
   horiz-adv-x="712"
   unicode="R" />
   <glyph
   id="glyph49"
   d="M50 -7.66929l0 190.669 38 0c16.6693,-55.3307 41.1654,-97.1654 73.8346,-125.496 32.8346,-28.3386 72.8346,-42.5039 120.331,-42.5039 42.6693,0 77.8346,11.3307 105.835,34.1654 28,22.8346 42,51.8346 42,87 0,18.8346 -3.33071,34.3386 -10,46.6693 -6.66929,12.1654 -18,23.4961 -34,33.8346 -18.1654,12 -54.1654,24.3307 -107.835,36.6614 -19.8346,4.50394 -35,8.17323 -45.4961,10.6693 -62.8346,16 -108.504,39.5039 -137,70.3307 -28.5039,31 -42.6693,72.5039 -42.6693,124.504 0,61 19,110.165 56.8346,147.835 38,37.4961 87.4961,56.3307 148.835,56.3307 25,0 48.3307,-3.49606 70,-10.4961 21.6614,-6.83465 42,-17.3386 61.3307,-31.1732l35.6693 28.6693 31.3307 0 4 -172 -33 0c-12.6693,50.5039 -33.8346,89 -63.4961,115.331 -29.5039,26.5039 -66.5039,39.6693 -110.669,39.6693 -36.6693,0 -66.8346,-9 -90.5039,-26.8346 -23.4961,-18 -35.3307,-40.6614 -35.3307,-68 0,-41 43.5039,-71.1654 130.331,-90.4961 11.6693,-2.50394 20.5039,-4.50394 26.6693,-5.83465 81.1654,-18.8346 138.165,-45.6693 170.835,-80.3307 32.8346,-34.6693 49.1654,-83.8346 49.1654,-147.504 0,-65.8346 -20.8346,-120.331 -62.6693,-163.835 -41.8268,-43.4961 -94.4961,-65.1654 -158,-65.1654 -32.3307,0 -60.6614,3.66929 -85,11 -24.4961,7.16535 -47.1654,18.8346 -68.3307,34.6693l-45 -38.3386 -36 0z"
   horiz-adv-x="547"
   unicode="S" />
   <glyph
   id="glyph51"
   d="M206 157.331c0,-42 9.83465,-76 29.3307,-101.661 19.5039,-25.8346 44.6693,-38.6693 75.5039,-38.6693 20.4961,0 34.8346,4.33071 43,13.1654 8.16535,8.83465 12.1654,25.3386 12.1654,49.1654l0 228.835c0,23.6693 -3.66929,40.5039 -11,50.1654 -7.33071,9.83465 -19.6693,14.6693 -37.3307,14.6693 -33.8346,0 -60.8346,-12.8346 -81.1654,-38.3307 -20.3386,-25.5039 -30.5039,-59.6693 -30.5039,-102.669l0 -74.6693zm-190 -157.331l0 30 54 0 0 590 -54 0 0 30c31,1 62.1654,2.50394 93.8346,4.50394 31.4961,2 63.6693,4.49606 96.1654,7.49606l0 -334.835c15,25.1654 33.1654,43.8346 54.5039,56.1654 21.3307,12.5039 45.8268,18.6693 73.4961,18.6693 53,0 97,-19.6693 131.835,-58.8346 34.8346,-39.1654 52.1654,-89 52.1654,-149.165 0,-58.1654 -17.6693,-107.165 -53,-146.669 -35.3307,-39.4961 -79,-59.3307 -131,-59.3307 -28,0 -52.6693,6.16535 -73.8346,18.3307 -21.1654,12.1732 -39.1654,30.8346 -54.1654,55.8346l0 -62.1654 -190 0z"
   horiz-adv-x="553"
   unicode="b" />
   <glyph
   id="glyph53"
   d="M420.165 132l22.8346 -7.83465c-15.3307,-44.6614 -38,-78.3307 -67.8346,-100.661 -30,-22.3386 -66.6614,-33.5039 -110,-33.5039 -62.8346,0 -115.331,19.8346 -157.661,59.6693 -42.3386,39.6614 -63.5039,88.6614 -63.5039,147 0,57.1654 22.1654,105.496 66.6693,145.496 44.4961,39.8346 99,59.8346 163.331,59.8346 45,0 81.5039,-10.3307 109.669,-30.8346 28.1654,-20.4961 42.3307,-46.8346 42.3307,-79.1654 0,-18.4961 -6,-33.8346 -18.1654,-45.8346 -12,-12.1654 -27.3307,-18.1654 -45.8346,-18.1654 -20.8346,0 -37.4961,6 -49.6693,18 -12.1654,12.1654 -18.3307,28.5039 -18.3307,49 0,15 5.16535,28.5039 15.6693,40.8346 10.3307,12.1654 15.6614,18.8346 15.6614,20.1654 0,7.83465 -4.16535,13.6693 -12.4961,17.3307 -8.33071,3.83465 -21.1654,5.66929 -38.8346,5.66929 -29.1654,0 -49.3307,-6.83465 -60.3307,-20.4961 -11.1654,-13.6693 -16.6693,-47.6693 -16.6693,-101.669l0 -119.504c0,-49.8268 5.66929,-82.1654 17.1654,-97 11.3386,-14.8268 32,-22.3307 62,-22.3307 34.5039,0 63.8346,9.66929 88,28.8346 24.3386,19.3307 43,47.6693 56,85.1654z"
   horiz-adv-x="493"
   unicode="c" />
   <glyph
   id="glyph55"
   d="M194 242l132 0 0 75.8346c0,21.1654 -5.33071,36.4961 -15.8346,46 -10.4961,9.49606 -27.3307,14.1654 -50.3307,14.1654 -22.1654,0 -38.6693,-5 -49.5039,-15 -10.8268,-9.83465 -16.3307,-25 -16.3307,-45.1654l0 -75.8346zm244 -110l23 -7.83465c-16.6693,-45.8346 -41,-79.8346 -73,-102 -32.1654,-22.1654 -73.3307,-33.1654 -123.835,-33.1654 -69.3307,0 -124.835,18.3307 -166.165,55.1654 -41.3307,36.8346 -62,85.8346 -62,147 0,60.5039 21.3307,110.835 64.1654,150.835 42.8346,40 96.8346,60 162,60 59.8346,0 107.165,-16.4961 141.835,-49.6693 34.6693,-33 52,-78.1654 52,-135.496l0 -4.83465 -262 0 0 -98.1654c0,-38.1654 6,-64.3307 17.8346,-78.5039 11.8346,-14.1654 32.4961,-21.3307 62.1654,-21.3307 40,0 73.6693,9.83465 101,29.6693 27.3307,19.6614 48.3307,49.1654 63,88.3307z"
   horiz-adv-x="492"
   unicode="e" />
   <glyph
   id="glyph57"
   d="M106 -37c-7.16535,-9.16535 -12.4961,-18.5039 -15.8346,-28.1654 -3.49606,-9.66929 -5.16535,-19.6693 -5.16535,-30 0,-32.3386 12.3307,-57 36.8346,-74.1654 24.6693,-17.1732 60,-25.6693 106.165,-25.6693 56.6693,0 102.331,11 137,33 34.6693,22 52,50.3307 52,84.8346 0,15.3307 -5.16535,25.8346 -15.3307,31.6614 -10.3386,5.66929 -31.8346,8.50394 -64.8346,8.50394l-230.835 0zm72 270c0,-25.8346 4,-43.4961 12,-53.3307 8,-9.83465 21.8346,-14.6693 41.8346,-14.6693 20.1654,0 34.1654,4.83465 42.1654,14.6693 8,9.83465 12,27.4961 12,53.3307l0 78.1654c0,25.6693 -4,43.3386 -12,52.6693 -8,9.49606 -22,14.1654 -42.1654,14.1654 -20.3307,0 -34.3307,-4.66929 -42.1654,-14.1654 -7.83465,-9.33071 -11.6693,-27 -11.6693,-52.6693l0 -78.1654zm-103.835 -260.669c-19.8346,9.66929 -34.8346,22.5039 -45,38.1732 -10.1654,15.8268 -15.1654,34.3307 -15.1654,55.4961 0,27 8.16535,49.5039 24.6693,67.5039 16.4961,18.1654 39.1654,29.8268 68.1654,35.3307l0 5c-20.3307,8.49606 -36.1654,20.6693 -47.1654,36.6693 -11.1654,15.8268 -16.6693,34.4961 -16.6693,55.6614 0,38.5039 17.5039,70.6693 52.5039,96.6693 35,26.1654 79.4961,39.1654 133.496,39.1654 29.3307,0 56,-3.83465 79.8346,-11.4961 24,-7.66929 45.3307,-19.3386 64.3307,-34.6693 12,20.1654 23.1654,34.6693 33.5039,43.1654 10.1654,8.66929 21.3307,13 33.4961,13 14.6693,0 26.1654,-4.49606 34.8346,-13.3307 8.66929,-9 13,-20.8346 13,-35.8346 0,-12.3307 -3.49606,-22.5039 -10.6693,-30.6693 -7.16535,-8.16535 -16.4961,-12.1654 -28,-12.1654 -12.3307,0 -23,4 -32.1654,12 -9.16535,8 -14.4961,12 -16.1654,12 -1.66929,0 -3.16535,-0.330709 -4.33071,-1.16535 -1.33858,-0.834646 -2.83465,-2.50394 -4.50394,-5 9.50394,-11.1654 16.3386,-22 20.5039,-32.5039 4.16535,-10.6614 6.33071,-22.3307 6.33071,-35.4961 0,-40 -16.8346,-71.3307 -50.3307,-93.8346 -33.5039,-22.6693 -80,-34 -139.669,-34 -15.6693,0 -34.4961,0.834646 -56.3307,2.50394 -22,1.49606 -36.3386,2.33071 -42.8346,2.33071 -22.1654,0 -39.1654,-3 -51,-9 -11.8346,-6 -17.8346,-14.6693 -17.8346,-26 0,-10.5039 5,-17.5039 15.1654,-21.1654 10,-3.83465 37.6693,-5.66929 82.8346,-5.66929l170 0c48,0 81.6693,-8.49606 101.504,-25.3307 19.6614,-17 29.4961,-45.5039 29.4961,-85.5039 0,-60.4961 -21.3307,-107.835 -64,-142 -42.6693,-34.1654 -102.331,-51.1654 -179.331,-51.1654 -65.6693,0 -116,9.16535 -150.669,27.4961 -34.6693,18.5039 -52,45 -52,79.8346 0,16.6693 4.83465,31.1654 14.5039,43.6693 9.49606,12.4961 24.8268,23.8346 45.6614,34l0 6.33071z"
   horiz-adv-x="491"
   unicode="g" />
   <glyph
   id="glyph59"
   d="M9 30l60 0 0 593 -66 0 0 30c35.5039,0 70.3307,0.834646 104.504,2.50394 34.1654,1.66142 67.3307,3.82677 99.4961,6.49606l0 -362.165c19.1654,34.8346 41.5039,60.3307 66.6693,76.1654 25.1654,16 56.1654,24 92.4961,24 42,0 71.6693,-8.83465 89,-26.6693 17.1654,-17.6614 25.8346,-50.4961 25.8346,-98.3307l0 -245 58 0 0 -30 -245 0 0 30 52 0 0 275.331c0,18.1732 -3.33071,31.3386 -9.83465,39.5039 -6.49606,8.16535 -16.8346,12.1654 -31.1654,12.1654 -24.6693,0 -47.1654,-14.1654 -67.4961,-42.6693 -20.3386,-28.4961 -30.5039,-61.3307 -30.5039,-98.3307l0 -186 51 0 0 -30 -249 0 0 30z"
   horiz-adv-x="548"
   unicode="h" />
   <glyph
   id="glyph61"
   d="M68 559.331c0,19.1732 6.83465,35.5039 20.6693,49.1732 13.8346,13.6614 30.3307,20.4961 49.4961,20.4961 18.8346,0 35,-6.66929 48.1654,-20.1654 13.1732,-13.5039 19.6693,-30 19.6693,-49.5039 0,-19.3307 -6.66929,-35.8268 -20,-49.6614 -13.3307,-13.8346 -29.4961,-20.6693 -48.6693,-20.6693 -19.3307,0 -35.6614,6.83465 -49.1654,20.6693 -13.4961,13.8346 -20.1654,30.3307 -20.1654,49.6614zm-56 -559.331l0 30 59 0 0 330 -65 0 0.503937 30c36.1654,1 71,2.50394 104.661,4.50394 33.6693,2 66.3386,4.49606 97.8346,7.49606l0 -372 62 0 0 -30 -259 0z"
   horiz-adv-x="274"
   unicode="i" />
   <glyph
   id="glyph63"
   d="M7 30l58 0 0 590 -64 0 0 30c35.8346,1 70.6693,2.66929 104.331,4.83465 33.8346,2.16535 66.5039,4.49606 97.6693,7.16535l0 -632 63 0 0 -30 -259 0 0 30z"
   horiz-adv-x="274"
   unicode="l" />
   <glyph
   id="glyph65"
   d="M16 30l60 0 0 332 -66 0 0 31c35.1654,0 69.5039,0.669291 103,1.83465 33.5039,1.16535 66.8346,2.83465 100,5.16535l0 -99.1654c19.1654,34.4961 41.5039,59.6693 66.6693,75.4961 25.1654,15.8346 56.1654,23.6693 92.4961,23.6693 43,0 73,-9 89.6693,-26.8346 16.8346,-18 25.1654,-56 25.1654,-114.165l0 -229 58 0 0 -30 -244 0 0 30 51 0 0 276.331c0,18.1732 -3.16535,31.3386 -9.66929,39.5039 -6.49606,8.16535 -17,12.1654 -31.3307,12.1654 -24.3307,0 -46.6693,-14.3307 -66.8346,-43 -20.1654,-28.6693 -30.1654,-61.3307 -30.1654,-98l0 -187 50 0 0 -30 -248 0 0 30z"
   horiz-adv-x="548"
   unicode="n" />
   <glyph
   id="glyph67"
   d="M38 195c0,60.8346 21.6693,110.504 65,149.165 43.3307,38.5039 99.3307,57.8346 168,57.8346 69,0 125.331,-19.1654 168.835,-57.6693 43.4961,-38.3307 65.1654,-87.8268 65.1654,-148.331 0,-60.4961 -21.8346,-110.165 -65.4961,-148.835 -43.6693,-38.8346 -99.8346,-58.1654 -168.504,-58.1654 -68.6693,0 -124.669,19.1654 -168,57.6693 -43.3307,38.3307 -65,87.8346 -65,148.331zm234 183c-30.8346,0 -51.8346,-9.83465 -62.6693,-29.4961 -10.8268,-19.8346 -16.3307,-70.6693 -16.3307,-152.669l0 -40.1654c0,-62.1654 5.50394,-101.504 16.5039,-118 11.1654,-16.5039 32,-24.6693 62.4961,-24.6693 30.5039,0 51.1654,9.33071 61.8346,27.8346 10.8346,18.6693 16.1654,65.3307 16.1654,140.165l0 57.8346c0,59.4961 -5.49606,97.6693 -16.4961,114.165 -11.1732,16.6693 -31.6693,25 -61.5039,25z"
   horiz-adv-x="546"
   unicode="o" />
   <glyph
   id="glyph69"
   d="M26 0l0 30 53 0 0 330 -54 0 0 30c31.6693,1.33071 63.1654,2.83465 94.5039,4.83465 31.4961,1.83465 63,4.33071 94.4961,7.16535l0 -107.165c13.3307,33.6693 30.8346,59.8346 52.5039,78.8346 21.6614,18.8346 44.8268,28.3307 69.6614,28.3307 24.6693,0 45.3386,-8 62,-24 16.5039,-16 24.8346,-35.6693 24.8346,-59.1654 0,-20.8346 -6.66929,-38 -20,-51.5039 -13.4961,-13.4961 -30.3307,-20.3307 -51,-20.3307 -17.8346,0 -33,6.50394 -45.3307,19.5039 -12.5039,13.1654 -18.6693,28.8268 -18.6693,47.4961 0,7.16535 2,14.5039 5.83465,22 4,7.50394 6,12.5039 6,15.1654 0,1.66929 -0.834646,3 -2.33071,4.16535 -1.33858,1.17323 -3.17323,1.66929 -5.50394,1.66929 -14.3307,0 -30.3307,-16.1654 -48.1654,-48.3307 -17.8346,-32.3386 -26.8346,-66.1654 -26.8346,-101.669l0 -177 72 0 0 -30 -263 0z"
   horiz-adv-x="438"
   unicode="r" />
   <glyph
   id="glyph71"
   d="M42 0l0 145 25 0c11.3307,-43 29.1654,-75.4961 53.3307,-97.3307 24.3386,-21.8346 54.1732,-32.6693 89.5039,-32.6693 28,0 50.8346,6.83465 68.6693,20.3307 17.6614,13.5039 26.4961,30.3386 26.4961,50.5039 0,25.3307 -29.1654,41.6693 -87.3307,48.8346 -16.6693,2 -29.5039,3.66142 -38.5039,5.33071 -51.4961,7.50394 -87.4961,20.5039 -108.165,39.1654 -20.6693,18.5039 -31,46.1654 -31,83 0,42.6693 12.6693,76.6693 38.1654,102 25.3386,25.1654 59.6693,37.8346 103,37.8346 16.3386,0 32.6693,-2 48.8346,-5.83465 16.3307,-4 31.6693,-9.66142 46,-17.1654l21 18.1654 20 0 3 -111.165 -25 0c-10.3307,30.3307 -25,53.3307 -44,68.8346 -18.8346,15.4961 -41.6693,23.1654 -68.6693,23.1654 -26.4961,0 -48.1654,-5.16535 -65.4961,-15.6693 -17.1654,-10.3307 -25.8346,-23 -25.8346,-38 0,-21.4961 33.6693,-36.4961 101,-44.8268 10.8346,-1.33858 19.3307,-2.50394 25.5039,-3.50394 52.3307,-6.49606 89,-20.1654 110,-40.8346 21,-20.6614 31.4961,-52.4961 31.4961,-95.8346 0,-46.8268 -13.4961,-83.6614 -40.4961,-110.331 -27,-26.6693 -64.1732,-40 -111.339,-40 -22.8346,0 -43.6614,2.83465 -62.6614,8.49606 -19,5.66929 -35.8346,13.6693 -50,24.3386l-28.5039 -21.8346 -24 0z"
   horiz-adv-x="382"
   unicode="s" />
   <glyph
   id="glyph73"
   d="M76 88.8346l0 272.165 -57 0 0 30 57 0 0 123c6.50394,-1.49606 13.8346,-2.49606 21.8346,-3.16535 8,-0.503937 19.8346,-0.834646 35.8346,-0.834646 14.3307,0 27.6614,0.330709 40.1654,1.16535 12.3307,0.669291 24.4961,1.66929 36.1654,2.83465l0 -123 80 0 0 -30 -80 0 0 -272.165c0,-16.8346 2.33071,-28.3307 6.83465,-34.5039 4.49606,-6.16535 13,-9.33071 25.3307,-9.33071 12.3386,0 22.5039,5.16535 30.5039,15.3307 8,10.1732 12.6614,24.1732 14.3307,41.6693l27 0c-2,-33.8346 -15.6693,-61 -41,-81.4961 -25.4961,-20.3386 -58.1654,-30.5039 -98.3307,-30.5039 -37.6693,0 -63.6693,6.33071 -77.6693,18.8346 -14,12.4961 -21,39.1654 -21,80z"
   horiz-adv-x="330"
   unicode="t" />
   <glyph
   id="glyph75"
   d="M479 402l0 -371 64 0 0 -30c-31.1654,0 -63.3307,-0.669291 -96.1654,-2 -32.8346,-1.33071 -67.8346,-3.33071 -104.835,-6l0 98.6693c-19.4961,-35.5039 -42,-61.3386 -67.4961,-77.5039 -25.3386,-16.1654 -55.8346,-24.1654 -91.1732,-24.1654 -22.4961,0 -42.1654,3.16535 -59,9.49606 -16.6614,6.33858 -30.1654,15.8346 -40.1654,28.1732 -5.83465,7.83465 -10,17.3307 -12.4961,28.3307 -2.50394,11.1654 -3.66929,27 -3.66929,47.8346l0 42.1654 0 216 -65 0 0 30c38.6693,0.669291 74.6693,1.83465 107.835,3.50394 33.1654,1.82677 63.8346,4 92.1654,6.49606l0 -315.165c0,-18.3307 3.33071,-31.6693 9.83465,-40.1654 6.49606,-8.50394 17,-12.6693 31.3307,-12.6693 24.3386,0 46.6693,14.6693 66.6693,43.8346 20.1654,29.1654 30.1654,62 30.1654,98.8346l0 185.331 -71 0 0 30.5039c31,0 63.3307,0.826772 97.1654,2.33071 33.8346,1.66929 71.1654,4 111.835,7.16535z"
   horiz-adv-x="548"
   unicode="u" />
  </font>
</defs>
</svg>
